#TITLE:Crushing Day;
#SUBTITLE:;
#ARTIST:Joe Satriani;
#TITLETRANSLIT:;
#SUBTITLETRANSLIT:;
#ARTISTTRANSLIT:;
#CREDIT:;
#BANNER:CD-ba.png;
#BACKGROUND:CD-bn.jpg;
#LYRICSPATH:;
#CDTITLE:Mus1c.png;
#MUSIC:Crushing Day.mp3;
#OFFSET:-3.900;
#SAMPLESTART:11.980;
#SAMPLELENGTH:13.000;
#SELECTABLE:YES;
#BPMS:0.000=162.610;
#STOPS:;
#BGCHANGES:;
// cache tags:
#FIRSTBEAT:0.000;
#LASTBEAT:459.000;
#SONGFILENAME:Songs/Mus1c/Crushing Day/Crushing.sm;
#HASMUSIC:1;
#HASBANNER:1;
#MUSICLENGTH:175.890;
// end cache tags

//---------------dance-single - ----------------
#NOTES:
     dance-single:
     :
     Hard:
     11:
     1.000,1.000,1.000,0.989,1.000,1003.000,180.000,174.000,0.000,55.000:
1001
0010
0100
0011
0100
0001
1010
0100
,
0101
0010
1000
0110
0001
0010
1100
0010
,
1001
1001
0100
1010
0001
0100
0010
1000
,
0001
0100
1000
0101
0101
0110
1100
1010
,
0001
0010
1001
0100
0010
0001
0110
1000
,
0101
0010
0100
1010
0001
0010
1001
0100
,
0011
0110
1000
0011
0100
1000
0010
0100
,
0010
1000
0001
0100
1000
0110
0110
0110
,
1002
0000
0000
0023
0000
0000
2030
0000
,
3002
0000
0000
0023
0000
0000
2030
0000
,
3020
0230
0000
2300
0000
0000
0000
0000
,
3020
0000
0000
0230
0000
0000
0000
0000
,
0302
0000
0000
0023
0000
0000
0230
0000
,
0302
0000
0000
2003
0000
0000
3200
0000
,
0320
0032
0000
2003
0000
0000
0000
0000
,
0000
0000
0000
0000
0000
3200
0320
0230
,
0320
0000
0000
2130
0000
0000
3102
0000
,
2013
0000
0000
3021
0000
0000
1230
0000
,
2301
3210
0000
1320
0000
0000
0000
0000
,
0000
0000
0000
0000
0000
0000
0000
0000
0000
0000
0000
0000
0000
0000
0030
1100
,
0000
0000
0000
1100
0000
1100
0000
0000
0000
0110
0000
0110
0000
0110
0000
1001
,
0000
0000
0000
1001
0000
1001
0000
0000
0000
0110
0000
0110
0000
0110
0000
0011
,
0000
0000
0000
0011
0000
0011
0000
0000
0000
0110
0000
0110
0000
0110
0000
1010
,
0000
0000
0000
1010
0000
1010
0000
0000
0000
0110
0000
0110
0000
0110
0000
0101
,
0000
0000
0000
0101
0000
0101
0000
0000
0000
0110
0000
0110
0000
0110
0000
1100
,
0000
0000
0000
1100
0000
1100
0000
0000
0000
0110
0000
0110
0000
0110
0000
0011
,
0000
0000
0000
0011
0000
0011
0000
0000
0000
0110
0000
0110
0000
0110
0000
0000
,
1001
0000
0010
0000
0100
0000
1000
0000
0010
0000
1000
0000
0010
0000
0000
0110
,
1000
0100
0010
0001
0010
0100
1000
0100
0010
0001
0010
0100
1000
0100
0010
0001
,
0010
0100
1000
0100
0010
0001
0010
0100
2000
0000
0000
0000
0000
0000
0000
3011
,
0100
1000
0100
0010
0100
1000
0100
0001
0100
0010
0100
1000
0100
0001
0100
0010
,
0100
0001
0100
1000
0100
0010
0100
0001
0200
0000
0000
0000
0000
0000
0000
1310
,
0001
1000
0001
0100
0001
0010
0001
0100
0001
1000
0001
0010
0001
0100
0001
0010
,
0001
1000
0001
0100
0001
1000
0001
0010
0001
0100
0001
0010
0002
0000
0000
1103
,
0010
0001
0010
0100
0010
1000
0010
0001
0010
0100
0010
1000
0010
0100
0010
0001
,
0020
0000
0000
2030
0000
0000
0000
0000
0000
0000
0000
0000
3000
0000
0000
1001
,
0010
0100
1000
0001
0010
0100
1000
0001
0010
0100
1000
0001
0010
0100
1000
0001
,
0010
0100
1000
0001
0010
0100
1000
0001
0200
0000
0000
0320
0000
0000
0000
0032
,
0000
1013
0100
0010
0001
1000
0100
0010
0001
1000
0100
0010
0001
1000
0100
0010
,
0001
1000
0100
0010
0001
1000
0100
0010
0002
0000
0000
0000
0000
0113
1000
0001
,
1000
0010
1000
0100
1000
0010
1000
0100
1000
0001
1000
0010
1000
0100
1000
0001
,
1000
0010
1000
0100
1000
0010
1000
0100
1000
0010
1000
0100
2000
0000
0000
0000
,
3001
0100
0010
1000
0001
0010
0100
0001
1000
0010
0100
0001
1000
0010
0100
1000
,
0200
0000
0320
0000
0000
0000
0000
2130
,
3000
2100
3010
0100
0001
1000
0010
2001
,
3000
0000
0210
0000
1300
0000
0001
0000
1020
0030
2100
3000
0000
0000
0210
0000
,
0300
2010
3001
1000
0100
0010
0100
0021
,
0030
2100
3001
0100
1000
0010
0100
1020
,
0030
0120
0031
1000
0010
0100
0001
2010
,
3000
0000
0102
0000
0003
0000
1000
0000
0021
0030
0102
0003
0100
0000
0012
0000
,
0003
2001
3010
0100
0001
1000
0010
0201
,
0300
1002
1103
1010
0001
0110
0001
1010
,
0000
0000
2000
0000
3020
0000
0230
0000
0302
0003
0002
0003
0000
0000
0000
0000
,
0000
0000
0002
0000
0203
0000
0320
0000
2030
3000
2000
3000
0000
0000
0000
0000
,
0000
0000
0020
0000
2030
0000
3200
0000
0320
0030
0020
0030
0000
0000
0000
0000
,
0000
0000
0020
0000
0230
0000
2300
0000
3200
0300
0200
0300
0000
0000
0000
0000
,
0000
0000
0002
0000
2003
0000
3020
0000
2030
3000
2000
3000
0000
0000
0000
0000
,
0000
0000
2000
0000
3002
0000
0023
0000
0230
0300
0200
0300
0000
0000
0000
0000
,
0000
0000
0020
0000
2030
0000
3200
0000
2300
3000
2000
3000
2000
3000
0200
0300
,
0200
0300
0020
0030
0020
0030
0020
0000
0000
0000
0000
0000
0030
0000
0000
0000
,
1010
0000
0000
0000
0000
0001
0010
0100
1000
0000
0000
0000
0000
0001
0010
0100
1000
0000
0000
0000
0000
0000
0001
0010
0100
1000
0000
0000
0000
0000
0000
0000
,
0110
0000
0000
0000
0000
1000
0100
0010
0001
0000
0000
0000
0000
0000
1000
0100
0010
0001
0000
0000
0000
0000
1000
0100
0010
0001
0000
0000
0000
0000
0100
0010
,
0100
0010
0000
0000
0000
0000
0100
1000
0100
1000
0000
0000
0000
0000
0001
0100
0001
0100
0000
0000
0000
0000
0001
0010
0001
0010
0001
0000
0100
0000
0010
0000
,
1000
0001
0010
0100
1000
0010
1000
0001
0200
0000
0000
0000
0300
0000
0000
0000
,
1001
0000
0000
0000
0000
1000
0100
0010
1000
0000
0000
0000
0000
1000
0100
0010
1000
0000
0000
0000
0000
0000
1000
0100
0010
1000
0000
0000
0000
0000
0000
0000
,
0011
0000
0000
0000
0000
0001
0010
0100
0001
0000
0000
0000
0000
0000
0001
0010
0100
0001
0000
0000
0000
0000
0001
0010
0100
0001
0000
0000
0000
0000
0010
0001
,
0100
0001
0000
0000
0000
0000
0100
1000
0010
1000
0000
0000
0000
0000
0001
0100
1000
0100
0000
0000
0000
0000
1000
0001
1000
0001
1000
0000
0100
0000
0010
0000
,
0001
0100
1000
0001
0010
0100
1000
0001
0200
0000
0000
0000
0300
0000
0000
0001
,
0010
0001
0010
0001
0020
0000
0030
1000
0100
1000
0100
1000
0200
0000
0300
0001
,
1000
0001
1000
0001
2000
0000
3000
0010
0100
0010
0100
0010
0200
0000
0300
0001
,
0010
1000
0010
1000
0010
1000
0010
1000
0100
0010
0001
1000
0100
0001
0010
0100
,
0001
0100
0001
0100
0001
0100
0010
1000
0100
0010
0001
1000
0100
0001
0100
0010
,
1000
0001
0100
0010
1000
0001
0010
0100
1000
0100
0010
0001
0100
0010
1000
0001
,
0010
0100
0010
0001
0100
0010
1000
0001
0100
0010
1000
0001
0010
0100
1000
0001
,
0100
0010
0001
1000
0010
1000
0100
0001
0010
1000
0001
0100
0010
0001
0100
0010
,
1000
0100
0010
0001
0100
0001
1000
0010
0200
0000
0300
0000
0000
0000
0220
0000
,
0000
0330
0110
0000
0110
0000
2020
3030
1010
0000
1010
0000
0202
0303
0101
0000
,
0101
0000
2002
3003
1001
0000
1001
0000
0022
0033
0011
0000
0011
0000
2020
3030
,
0202
0303
0022
0033
2020
3030
0220
0331
,
1000
0010
0100
0020
0000
0030
0000
2002
,
3003
0010
0100
0010
0000
0000
1000
0001
1000
0002
0000
0000
0003
0000
0000
0000
,
0100
0000
0000
1000
0000
0000
0100
0000
0000
0000
0000
0000
0001
0000
0000
0010
0000
0000
0100
0000
0000
0000
0000
0000
1000
0000
0000
0000
0100
0000
0000
0000
0010
0000
0000
0000
0002
0000
0000
0000
0000
0000
0000
0000
0000
0000
0000
0000
,
1003
0100
0010
0001
1000
0100
0011
0001
0010
0100
1000
0001
,
0110
1000
0001
1000
0001
1000
0220
0000
0000
0330
0000
0000
,
0001
0010
0100
1000
0100
0010
0100
0010
1000
0100
0001
0100
0010
1000
0100
0010
,
1000
0001
0100
0010
1000
0100
0001
0010
0100
0001
0010
0100
1000
0010
0100
0001
,
0010
0100
0010
0001
1000
0010
0100
1000
0010
0001
0010
0100
1000
0010
0100
0001
,
1000
0100
1000
0010
0001
1000
0010
0100
1000
0100
0001
0010
1000
0001
0100
0001
,
0010
0000
0000
0100
0000
0000
1000
0000
0010
0000
0000
0000
0100
0000
0000
0000
0001
0000
0000
0000
1000
0000
0000
0000
0010
0000
0000
0000
0100
0000
0000
0000
0001
0000
0000
0000
0010
0000
0000
0000
0100
0000
0000
0000
0001
0000
0000
0000
,
1000
0010
0100
1000
0001
0010
0100
0001
0010
1000
0001
0100
,
0010
1001
0010
0100
0010
0100
0011
1000
0100
1000
0100
1000
,
0011
0100
0001
0100
0001
0100
1000
0001
0100
0020
0000
0000
,
1030
0100
1000
0100
1000
0100
0010
1000
0001
0100
0001
0100
0001
0100
0010
0001
,
0100
0010
0100
0010
0100
0010
0001
0100
1000
0001
1000
0001
1000
0001
0100
0010
,
1000
0100
0010
0001
0010
0100
1000
0001
0100
0010
0100
0010
0100
0010
1000
0001
,
0010
0100
1000
0100
0010
0001
0100
0001
1000
0100
1000
0100
1000
0100
0001
1000
,
0020
0000
0000
0000
0230
0000
0000
0300
0000
0000
0000
0000
2000
0000
3000
0000
,
0001
0000
0000
0010
0000
0000
0100
0000
0000
1000
0000
0000
0100
0000
0000
0001
0000
0000
0010
0000
0000
1000
0000
0000
0002
0000
0000
0000
0000
0000
2003
0000
0000
0000
0000
0000
0000
0000
0000
0000
0000
0000
3000
0000
0010
0000
0000
0000
,
0100
0001
1000
0010
0100
1000
0001
0100
0010
1000
0001
0100
,
0010
0001
1000
0100
1000
0100
0020
0000
0000
0000
0000
0000
,
1032
1100
1100
1100
0000
0100
0100
0100
,
0110
0110
0110
0110
0000
0100
0100
0123
,
2031
0101
0101
0101
0000
0010
0010
0010
,
0011
0011
0011
0011
0000
0010
0010
3210
,
1320
1100
1100
1100
0000
1000
1000
1000
,
0101
0101
0101
0101
0000
1000
1000
1032
,
0213
0011
0011
0011
0000
0001
0001
0001
,
0320
0032
2003
3200
0320
0230
2300
3020
,
2032
3003
1200
0000
,
0312
0000
2013
0000
,
3201
0000
0000
0000
,
2320
0000
0000
0000
,
3030
0000
0120
0000
,
0132
0000
1203
0000
,
2302
0000
0000
3003
;
